Hello guest! It looks like you're not a member yet. Register for free and get full access!
Results 1 to 5 of 5

Thread: M.I.K.E. - Club Elite Sessions August (Shanghai, China) (22-08-2007)

  1. #1
    Blue Velvet's Avatar
    Join Date
    Feb 2007
    Last Online
    @
    Gender
    Posts
    16,543
    Mentioned
    4 Post(s)
    Tagged
    0 Thread(s)
    Thanks
    10
    Thanked 50,056x in 114 Posts
    United States

    M.I.K.E. - Club Elite Sessions August (Shanghai, China) (22-08-2007)

    Tracklist:

    Hour 1:

    01. Deadmau5 - Jaded
    02. ID
    03. ID
    04. ID
    05. ID
    06. ID
    07. Terry Ferminal - Deep Inside (Original)
    08. ID
    09. ID
    10. Marcus Schossow - Mr White (Rueben De Ronde Remix)

    Hour 2:
    11. ID
    12. Marcus Schossow - Mr White (Rueben De Ronde Remix)
    13. James Zabiela & Nic Fanciulli - No Pressure
    14. ID
    15. Nathan Fake - Outhouse (Valentino Kanzyani Remix)
    16. Supermodels From Paris - Keep On (Komytea Remix)
    17. Plump DJ's - Electric Disco (D. Ramirex Mix)
    18. Alex M.O.R.P.H. & Rank 1 - A Life Less Ordinary (A Less Ordinary Rank 1 Mix)
    19. Wippenberg feat. Tiff Lacey - Promised Land (Sphaera Dub Mix)
    20. ID
    21. ID


    sendspace: thx to zombie (better quality 166 mb| 192 kbps)
    http://www.sendspace.com/file/rz19lc

    http://rapidshare.com/files/50619571....trance.cl.mp3
    Last edited by Blue Velvet; 08-24-2007 at 23:19 PM.

  2. #2
    spyzor's Avatar
    Join Date
    Dec 2006
    Last Online
    12-25-2009 @ 13:01 PM
    Location
    Liege, Belgium
    Age
    35
    Gender
    Posts
    171
    Mentioned
    0 Post(s)
    Tagged
    0 Thread(s)
    Thanks
    0
    Thanked 0x in 0 Posts
    Belgium
    I hope there is the two hours :s. As usual, thx blue velvet, you are the best

    Ok, there is 2 hours, so I will hope than a 192 kbps version will coming
    Last edited by spyzor; 08-23-2007 at 10:12 AM.

  3. #3
    asdrubal's Avatar
    Join Date
    Nov 2006
    Last Online
    07-01-2011 @ 07:02 AM
    Location
    :: Chile ::
    Gender
    Posts
    123
    Mentioned
    0 Post(s)
    Tagged
    0 Thread(s)
    Thanks
    0
    Thanked 0x in 0 Posts
    Chile
    Quote Originally Posted by spyzor
    I hope there is the two hours :s. As usual, thx blue velvet, you are the best

    Ok, there is 2 hours, so I will hope than a 192 kbps version will coming
    there are the 2 hours, but to 192kbps...

  4. #4
    spyzor's Avatar
    Join Date
    Dec 2006
    Last Online
    12-25-2009 @ 13:01 PM
    Location
    Liege, Belgium
    Age
    35
    Gender
    Posts
    171
    Mentioned
    0 Post(s)
    Tagged
    0 Thread(s)
    Thanks
    0
    Thanked 0x in 0 Posts
    Belgium
    No, the file is 80 Mo so it s 96 kbps.

  5. #5

    Join Date
    Nov 2006
    Last Online
    05-09-2011 @ 14:27 PM
    Gender
    Posts
    54
    Mentioned
    0 Post(s)
    Tagged
    0 Thread(s)
    Thanks
    0
    Thanked 0x in 0 Posts
    Poland
    http://www.sendspace.com/file/rz19lc - 192kbps SENDSPACE Link
    Tracklist:
    Hour 1:
    01. Deadmau5 - Jaded
    02. ID
    03. ID
    04. ID
    05. ID
    06. ID
    07. Terry Ferminal - Deep Inside (Original)
    08. ID
    09. ID
    10. Marcus Schossow - Mr White (Rueben De Ronde Remix)
    Hour 2:
    11. ID
    12. Marcus Schossow - Mr White (Rueben De Ronde Remix)
    13. James Zabiela & Nic Fanciulli - No Pressure
    14. ID
    15. Nathan Fake - Outhouse (Valentino Kanzyani Remix)
    16. Supermodels From Paris - Keep On (Komytea Remix)
    17. Plump DJ's - Electric Disco (D. Ramirex Mix)
    18. Alex M.O.R.P.H. & Rank 1 - A Life Less Ordinary (A Less Ordinary Rank 1 Mix)
    19. Wippenberg feat. Tiff Lacey - Promised Land (Sphaera Dub Mix)
    20. ID
    21. ID
    Code:
    PERFORMER "M.I.K.E."
    TITLE "Club Elite Sessions 025 (August 2007)"
    FILE "M.I.K.E._-_Club_Elite_Sessions_(August2007).mp3" MP3
      TRACK 01 AUDIO
        PERFORMER "<<< Hour 1: Studio Mix >>>  Deadmau5"
        TITLE "Jaded"
        INDEX 01 00:00:00
      TRACK 02 AUDIO
        PERFORMER ""
        TITLE "ID"
        INDEX 01 08:29:20
      TRACK 03 AUDIO
        PERFORMER ""
        TITLE "ID"
        INDEX 01 18:37:00
      TRACK 04 AUDIO
        PERFORMER ""
        TITLE "ID"
        INDEX 01 26:26:35
      TRACK 05 AUDIO
        PERFORMER ""
        TITLE "ID"
        INDEX 01 29:15:10
      TRACK 06 AUDIO
        PERFORMER ""
        TITLE "ID"
        INDEX 01 34:22:60
      TRACK 07 AUDIO
        PERFORMER "Terry Ferminal"
        TITLE "Deep Inside (Original)"
        INDEX 01 40:29:20
      TRACK 08 AUDIO
        PERFORMER ""
        TITLE "ID"
        INDEX 01 46:35:50
      TRACK 09 AUDIO
        PERFORMER ""
        TITLE "ID"
        INDEX 01 54:24:50
      TRACK 10 AUDIO
        PERFORMER "Marcus Schossow"
        TITLE "Mr White (Rueben De Ronde Remix)"
        INDEX 01 60:23:50
      TRACK 11 AUDIO
        PERFORMER ""
        TITLE "<<< Hour 2: Recorded Live In Shanghai, China (17.08.2007) >>> ID"
        INDEX 01 61:13:10
      TRACK 12 AUDIO
        PERFORMER "Marcus Schossow"
        TITLE "Mr White (Rueben De Ronde Remix)"
        INDEX 01 64:21:60
      TRACK 13 AUDIO
        PERFORMER "James Zabiela & Nic Fanciulli"
        TITLE "No Pressure"
        INDEX 01 69:26:20
      TRACK 14 AUDIO
        PERFORMER ""
        TITLE "ID"
        INDEX 01 75:29:50
      TRACK 15 AUDIO
        PERFORMER "Nathan Fake"
        TITLE "Outhouse (Valentino Kanzyani Remix)"
        INDEX 01 80:27:10
      TRACK 16 AUDIO
        PERFORMER "Supermodels From Paris"
        TITLE "Keep On (Komytea Remix)"
        INDEX 01 85:46:05
      TRACK 17 AUDIO
        PERFORMER "Plump DJ's"
        TITLE "Electric Disco (D. Ramirex Mix)"
        INDEX 01 90:50:30
      TRACK 18 AUDIO
        PERFORMER "Alex M.O.R.P.H. & Rank 1"
        TITLE "A Life Less Ordinary (A Less Ordinary Rank 1 Mix)"
        INDEX 01 97:07:00
      TRACK 19 AUDIO
        PERFORMER "Wippenberg feat. Tiff Lacey"
        TITLE "Promised Land (Sphaera Dub Mix)"
        INDEX 01 103:31:10
      TRACK 20 AUDIO
        PERFORMER ""
        TITLE "ID"
        INDEX 01 111:09:00
      TRACK 21 AUDIO
        PERFORMER ""
        TITLE "ID"
     INDEX 01 116:41:00

Posting Permissions

  • You may not post new threads
  • You may not post replies
  • You may not post attachments
  • You may not edit your posts
  •